The Crusades 2023 1080p AMZN WEB-DL DDP5 1 H 264-FLUX

  • Category Movies
  • Type h.264/x264
  • Language English
  • Total size 5.5 GB
  • Uploaded By mazemaze16
  • Downloads 214
  • Last checked 2 months ago
  • Date uploaded 2 months ago
  • Seeders 19
  • Leechers 9

The Crusades

ComedyDrama

On the edge of revolutionary change at their all boys private high school, three friends set out to have one last great weekend while dodging authority, love affairs and violent foes in the longest weekend of their lives.

Infohash : C9755D933E0A95464EEEB9C0F26EF68FD3416F96

Warning! Use a VPN When Downloading Torrents!
Your IP Address is . Location
Your Internet Provider can see when you download torrents! Hide your IP Address with a VPN
1337x recommends using Trust.Zone VPN to hide your torrenting. It's FREE HIDE ME NOW




The Crusades 2023 1080p AMZN WEB-DL DDP5 1 H 264-FLUX




Format : Matroska
Format version : Version 4
File size : 5.47 GiB
Duration : 1 h 41 min
Overall bit rate : 7 692 kb/s
Writing application : mkvmerge v79.0 ('Funeral Pyres') 64-bit
Writing library : libebml v1.4.4 + libmatroska v1.7.1

Video
ID : 1
Format : AVC
Format/Info : Advanced Video Codec
Format profile : High@L4
Format settings : CABAC / 4 Ref Frames
Format settings, CABAC : Yes
Format settings, Reference frames : 4 frames
Codec ID : V_MPEG4/ISO/AVC
Duration : 1 h 41 min
Bit rate mode : Constant
Bit rate : 6 899 kb/s
Nominal bit rate : 10 000 kb/s
Width : 1 920 pixels
Height : 1 080 pixels
Display aspect ratio : 16:9
Frame rate mode : Constant
Frame rate : 23.976 (24000/1001) FPS
Color space : YUV
Chroma subsampling : 4:2:0
Bit depth : 8 bits
Scan type : Progressive
Bits/(Pixel*Frame) : 0.139
Stream size : 4.91 GiB (90%)
Default : Yes
Forced : No
Color range : Limited
Color primaries : BT.709
Transfer characteristics : BT.709
Matrix coefficients : BT.709

Audio
ID : 2
Format : E-AC-3
Format/Info : Enhanced AC-3
Commercial name : Dolby Digital Plus
Codec ID : A_EAC3
Duration : 1 h 41 min
Bit rate mode : Constant
Bit rate : 640 kb/s
Channel(s) : 6 channels
Channel layout : L R C LFE Ls Rs
Sampling rate : 48.0 kHz
Frame rate : 31.250 FPS (1536 SPF)
Compression mode : Lossy
Stream size : 466 MiB (8%)
Language : English
Service kind : Complete Main
Default : Yes
Forced : No

Text #1
ID : 3
Format : UTF-8
Codec ID : S_TEXT/UTF8
Codec ID/Info : UTF-8 Plain Text
Language : English (US)
Default : No
Forced : No

Text #2
ID : 4
Format : UTF-8
Codec ID : S_TEXT/UTF8
Codec ID/Info : UTF-8 Plain Text
Title : SDH
Language : English (US)
Default : No
Forced : No




Screens:




Files:

The.Crusades.2023.1080p.AMZN.WEB-DL.DDP5.1.H.264-FLUX
  • The.Crusades.2023.1080p.AMZN.WEB-DL.DDP5.1.H.264-FLUX.mkv (5.5 GB)
  • The.Crusades.2023.1080p.AMZN.WEB-DL.DDP5.1.H.264-FLUX.mkv.nfo (4.1 KB)

There are currently no comments. Feel free to leave one :)

Code:

  • udp://tracker.opentrackr.org:1337/announce
  • udp://exodus.desync.com:6969/announce
  • udp://9.rarbg.me:2970/announce
  • udp://tracker.opentrackr.org:1337/announce
  • udp://tracker.tiny-vps.com:6969/announce
  • udp://tracker.internetwarriors.net:1337/announce
  • udp://opentor.org:2710/announce
  • udp://tracker.torrent.eu.org:451/announce
  • udp://explodie.org:6969/announce
  • udp://tracker.moeking.me:6969/announce
  • udp://tracker.cyberia.is:6969/announce
  • udp://9.rarbg.me:2980/announce
  • udp://9.rarbg.to:2940/announce
  • udp://tracker.uw0.xyz:6969/announce
  • udp://tracker.openbittorrent.com:1337/announce