Theres Something in the Barn 2023 2160p MA WEB-DL DDP5 1 H 265-FL...

  • Category Movies
  • Type HEVC/x265
  • Language English
  • Total size 17.2 GB
  • Uploaded By mazemaze16
  • Downloads 404
  • Last checked 2 months ago
  • Date uploaded 2 months ago
  • Seeders 47
  • Leechers 7

Infohash : 465BC48425ECBB77E081B5E3FF9B5B69BB2F2853

Warning! Use a VPN When Downloading Torrents!
Your IP Address is . Location
Your Internet Provider can see when you download torrents! Hide your IP Address with a VPN
1337x recommends using Trust.Zone VPN to hide your torrenting. It's FREE HIDE ME NOW




Theres Something in the Barn 2023 2160p MA WEB-DL DDP5 1 H 265-FLUX



Format : Matroska
Format version : Version 4
File size : 17.2 GiB
Duration : 1 h 40 min
Overall bit rate : 24.5 Mb/s
Writing application : mkvmerge v79.0 ('Funeral Pyres') 64-bit
Writing library : libebml v1.4.4 + libmatroska v1.7.1

Video
ID : 1
Format : HEVC
Format/Info : High Efficiency Video Coding
Format profile : Main 10@L5@High
Codec ID : V_MPEGH/ISO/HEVC
Duration : 1 h 40 min
Bit rate : 23.4 Mb/s
Width : 3 840 pixels
Height : 2 160 pixels
Display aspect ratio : 16:9
Frame rate mode : Constant
Frame rate : 23.976 (24000/1001) FPS
Color space : YUV
Chroma subsampling : 4:2:0 (Type 2)
Bit depth : 10 bits
Bits/(Pixel*Frame) : 0.118
Stream size : 16.4 GiB (95%)
Language : English
Default : Yes
Forced : No
Color range : Limited
Color primaries : BT.709
Transfer characteristics : BT.709
Matrix coefficients : BT.709

Audio
ID : 2
Format : E-AC-3
Format/Info : Enhanced AC-3
Commercial name : Dolby Digital Plus
Codec ID : A_EAC3
Duration : 1 h 40 min
Bit rate mode : Constant
Bit rate : 640 kb/s
Channel(s) : 6 channels
Channel layout : L R C LFE Ls Rs
Sampling rate : 48.0 kHz
Frame rate : 31.250 FPS (1536 SPF)
Compression mode : Lossy
Delay relative to video : 12 ms
Stream size : 460 MiB (3%)
Language : English (US)
Service kind : Complete Main
Default : Yes
Forced : No

Text #1
ID : 3
Format : UTF-8
Codec ID : S_TEXT/UTF8
Codec ID/Info : UTF-8 Plain Text
Language : English (US)
Default : Yes
Forced : Yes

Text #2
ID : 4
Format : UTF-8
Codec ID : S_TEXT/UTF8
Codec ID/Info : UTF-8 Plain Text
Language : English (US)
Default : No
Forced : No

Text #3
ID : 5
Format : UTF-8
Codec ID : S_TEXT/UTF8
Codec ID/Info : UTF-8 Plain Text
Title : SDH
Language : English (US)
Default : No
Forced : No

Text #4
ID : 6
Format : UTF-8
Codec ID : S_TEXT/UTF8
Codec ID/Info : UTF-8 Plain Text
Language : Spanish (Latin America)
Default : No
Forced : No

Text #5
ID : 7
Format : UTF-8
Codec ID : S_TEXT/UTF8
Codec ID/Info : UTF-8 Plain Text
Language : French (FR)
Default : No
Forced : No

Text #6
ID : 8
Format : UTF-8
Codec ID : S_TEXT/UTF8
Codec ID/Info : UTF-8 Plain Text
Language : Italian (IT)
Default : No
Forced : No

Text #7
ID : 9
Format : UTF-8
Codec ID : S_TEXT/UTF8
Codec ID/Info : UTF-8 Plain Text
Language : Portuguese (BR)
Default : No
Forced : No


Screens:



Files:

Theres.Something.in.the.Barn.2023.2160p.MA.WEB-DL.DDP5.1.H.265-FLUX
  • Theres.Something.in.the.Barn.2023.2160p.MA.WEB-DL.DDP5.1.H.265-FLUX.mkv (17.2 GB)
  • Theres.Something.in.the.Barn.2023.2160p.MA.WEB-DL.DDP5.1.H.265-FLUX.mkv.nfo (5.8 KB)
  • Theres.Something.in.the.Barn.2023.2160p.MA.WEB-DL.DDP5.1.H.265-FLUX.txt (0.0 KB)

There are currently no comments. Feel free to leave one :)

Code:

  • udp://tracker.opentrackr.org:1337/announce
  • udp://exodus.desync.com:6969/announce
  • udp://9.rarbg.me:2970/announce
  • udp://tracker.opentrackr.org:1337/announce
  • udp://tracker.tiny-vps.com:6969/announce
  • udp://tracker.internetwarriors.net:1337/announce
  • udp://opentor.org:2710/announce
  • udp://tracker.torrent.eu.org:451/announce
  • udp://explodie.org:6969/announce
  • udp://tracker.moeking.me:6969/announce
  • udp://tracker.cyberia.is:6969/announce
  • udp://9.rarbg.me:2980/announce
  • udp://9.rarbg.to:2940/announce
  • udp://tracker.uw0.xyz:6969/announce
  • udp://tracker.openbittorrent.com:1337/announce