Strays (2023) Doggy Style - BluRay 1080p.H264 Ita Eng AC3 5.1 Sub...

  • Category Movies
  • Type HD
  • Language English
  • Total size 2.9 GB
  • Uploaded By realDMDJ
  • Downloads 577
  • Last checked 2 months ago
  • Date uploaded 2 months ago
  • Seeders 65
  • Leechers 18

Strays

Comedy

When Reggie is abandoned on the mean city streets by his lowlife owner, Doug, Reggie is certain that his beloved owner would never leave him on purpose. But once Reggie falls in with a fast-talking, foul-mouthed stray who loves his freedom and believes that owners are for suckers, Reggie finally realizes he was in a toxic relationship and begins to see Doug for the heartless sleazeball that he is.

Infohash : 686D9FEFCEB314D370C3955E00E2EE066D9D3DEB

Warning! Use a VPN When Downloading Torrents!
Your IP Address is . Location
Your Internet Provider can see when you download torrents! Hide your IP Address with a VPN
1337x recommends using Trust.Zone VPN to hide your torrenting. It's FREE HIDE ME NOW





Doggy Style, film diretto da Josh Greenbaum, racconta la storia di Reggie, un Border Terrier dall'indole ottimista, che viene abbandonato dal suo padrone Doug (Will Forte), un essere ignobile, per le vie della città. Innocentemente Reggie crede che non sia stata una cosa voluta e che il suo amato padrone non farebbe mai una cosa così spregevole, come abbandonarlo. In seguito il cane incontra Bug, un Boston Terrier randagio, per nulla elegante, con una bella parlantina, amante della sua libertà e che non si fida per nulla della bontà dei padroni. Grazie a lui, Reggie riesce a capire che lo smarrimento di Doug era intenzionale e premeditato e di quanto l'uomo sia una persona orribile e senza sentimenti.
Deciso a vendicarsi, Reggie si allea con Bug e con altri cani, tutti rimasti delusi dagli esseri umani. Tra questi vi sono: il brillante Pastore Australiano Maggie, che è stata sostituita con un cucciolo dal suo padrone, e l'ansioso alano Hunter, stanco del suo impiego come animale da supporto emotivo. Il gruppo decide di mettere su un piano per aiutare il loro amico. Innanzitutto, dovranno rintracciare la cada di Doug e poi vendicarsi dell'uomo, mordendogli l'estremità di se stesso a cui lui è più affezionato.
Il cast originali vede in veste di doppiatori Will Ferrell, Isla Fisher, Randall Park e Jamie Foxx.



Will Ferrell, Jamie Foxx, Will Forte, Isla Fisher, Randall Park, Josh Gad, Harvey Guillén, Brett Gelman, Rob Riggle, Jamie Demetriou, Sofía Vergara, Greta Lee, Jimmy Tatro, Jack De Sanz, Phil Morris, David Herman, Jaquita Ta'le, Dennis Quaid, Hedy Nasser, Jade Fernandez, Charity Cervantes, Aven



TITOLO : Strays (Original Title)
REGIA : Josh Greenbaum
ANNO : 2023
PAESE : USA
DURATA : 93 Min.
GENERE : Avventura, Commedia
DIMENSIONE : 2.85 Gb
















General
Unique ID : 115442045913353009597635161241858535389 (0x56D9544D6FB6167284111B369CE6EFDD)
Complete name : Doggy Style 2023 BluRay 1080p.H264 Ita Eng AC3 5.1 Sub Ita Eng realDMDJ.mkv
Format : Matroska
Format version : Version 4
File size : 2.85 GiB
Duration : 1 h 33 min
Overall bit rate : 4 388 kb/s
Frame rate : 23.976 FPS
Movie name : Encoded By realDMDJ
Encoded date : 2023-12-06 18:49:14 UTC
Writing application : mkvmerge v56.1.0 ('My Friend') 64-bit
Writing library : libebml v1.4.2 + libmatroska v1.6.4

Video
ID : 1
Format : AVC
Format/Info : Advanced Video Codec
Format profile : Main@L4
Format settings : CABAC / 4 Ref Frames
Format settings, CABAC : Yes
Format settings, Reference frames : 4 frames
Codec ID : V_MPEG4/ISO/AVC
Duration : 1 h 33 min
Bit rate : 3 230 kb/s
Width : 1 920 pixels
Height : 1 036 pixels
Display aspect ratio : 1.85:1
Frame rate mode : Constant
Frame rate : 23.976 (24000/1001) FPS
Color space : YUV
Chroma subsampling : 4:2:0
Bit depth : 8 bits
Scan type : Progressive
Bits/(Pixel*Frame) : 0.068
Stream size : 2.08 GiB (73%)
Title : realDMDJ
Default : Yes
Forced : No
Color range : Limited
Color primaries : BT.709
Transfer characteristics : BT.709
Matrix coefficients : BT.709

Audio #1
ID : 2
Format : AC-3
Format/Info : Audio Coding 3
Commercial name : Dolby Digital
Codec ID : A_AC3
Duration : 1 h 33 min
Bit rate mode : Constant
Bit rate : 640 kb/s
Channel(s) : 6 channels
Channel layout : L R C LFE Ls Rs
Sampling rate : 48.0 kHz
Frame rate : 31.250 FPS (1536 SPF)
Compression mode : Lossy
Stream size : 426 MiB (15%)
Title : Surround
Language : Italian
Service kind : Complete Main
Default : Yes
Forced : No

Audio #2
ID : 3
Format : AC-3
Format/Info : Audio Coding 3
Commercial name : Dolby Digital
Codec ID : A_AC3
Duration : 1 h 33 min
Bit rate mode : Constant
Bit rate : 448 kb/s
Channel(s) : 6 channels
Channel layout : L R C LFE Ls Rs
Sampling rate : 48.0 kHz
Frame rate : 31.250 FPS (1536 SPF)
Compression mode : Lossy
Delay relative to video : 20 ms
Stream size : 298 MiB (10%)
Title : Surround
Language : English
Service kind : Complete Main
Default : No
Forced : No

Audio #3
ID : 4
Format : AAC LC SBR
Format/Info : Advanced Audio Codec Low Complexity with Spectral Band Replication
Commercial name : HE-AAC
Format settings : Explicit
Codec ID : A_AAC-2
Duration : 1 h 33 min
Bit rate : 66.2 kb/s
Channel(s) : 2 channels
Channel layout : L R
Sampling rate : 48.0 kHz
Frame rate : 23.438 FPS (2048 SPF)
Compression mode : Lossy
Delay relative to video : 40 ms
Stream size : 43.8 MiB (1%)
Title : Commentary
Language : English
Default : No
Forced : No

Text #1
ID : 5
Format : UTF-8
Codec ID : S_TEXT/UTF8
Codec ID/Info : UTF-8 Plain Text
Duration : 1 h 24 min
Bit rate : 0 b/s
Frame rate : 0.002 FPS
Count of elements : 9
Stream size : 148 Bytes (0%)
Title : Forced
Language : Italian (IT)
Default : Yes
Forced : Yes

Text #2
ID : 6
Format : UTF-8
Codec ID : S_TEXT/UTF8
Codec ID/Info : UTF-8 Plain Text
Duration : 1 h 32 min
Bit rate : 89 b/s
Frame rate : 0.292 FPS
Count of elements : 1614
Stream size : 60.5 KiB (0%)
Title : Regular
Language : Italian
Default : No
Forced : No

Text #3
ID : 7
Format : UTF-8
Codec ID : S_TEXT/UTF8
Codec ID/Info : UTF-8 Plain Text
Duration : 1 h 29 min
Bit rate : 117 b/s
Frame rate : 0.380 FPS
Count of elements : 2040
Stream size : 76.6 KiB (0%)
Title : N.U. Eng
Language : English
Default : No
Forced : No

Text #4
ID : 8
Format : PGS
Muxing mode : zlib
Codec ID : S_HDMV/PGS
Codec ID/Info : Picture based subtitle format used on BDs/HD-DVDs
Duration : 1 h 28 min
Bit rate : 78.8 kb/s
Frame rate : 0.764 FPS
Count of elements : 4080
Stream size : 50.2 MiB (2%)
Title : SDH
Language : English
Default : No
Forced : No

Menu
00:00:00.000 : Chapter 1
00:03:38.677 : Chapter 2
00:08:04.484 : Chapter 3
00:14:03.843 : Chapter 4
00:18:26.188 : Chapter 5
00:21:53.354 : Chapter 6
00:26:39.348 : Chapter 7
00:28:41.762 : Chapter 8
00:34:50.672 : Chapter 9
00:37:32.542 : Chapter 10
00:43:48.960 : Chapter 11
00:49:27.923 : Chapter 12
00:52:57.049 : Chapter 13
00:56:34.099 : Chapter 14
01:02:59.818 : Chapter 15
01:07:18.910 : Chapter 16
01:10:37.942 : Chapter 17
01:13:10.303 : Chapter 18
01:22:04.294 : Chapter 19
01:26:11.166 : Chapter 20

Files:

  • Doggy Style 2023 BluRay 1080p.H264 Ita Eng AC3 5.1 Sub Ita Eng realDMDJ.mkv (2.9 GB)

There are currently no comments. Feel free to leave one :)

Code:

  • udp://tracker.opentrackr.org:1337/announce
  • udp://tracker.torrent.eu.org:451/announce
  • udp://open.stealth.si:80/announce
  • udp://tracker.openbittorrent.com:80/announce
  • udp://tracker.tiny-vps.com:6969/announce
  • udp://tracker1.bt.moack.co.kr:80/announce
  • udp://tracker.dler.org:6969/announce
  • udp://movies.zsw.ca:6969/announce
  • udp://p4p.arenabg.com:1337/announce
  • udp://explodie.org:6969/announce
  • udp://uploads.gamecoast.net:6969/announce
  • udp://exodus.desync.com:6969/announce
  • http://tracker.files.fm:6969/announce
  • http://open.acgnxtracker.com:80/announce
  • udp://opentracker.i2p.rocks:6969/announce