Aquaman And The Lost Kingdom (2) English HC Partially NO ADS IMAX...

  • Category Movies
  • Type h.264/x264
  • Language English
  • Total size 1.7 GB
  • Uploaded By CookieEaster
  • Downloads 20414
  • Last checked 1 month ago
  • Date uploaded 1 month ago
  • Seeders 814
  • Leechers 366

Infohash : D139F3D68EF4E0BE45C7FAE2131565DE8D2846FE

Warning! Use a VPN When Downloading Torrents!
Your IP Address is . Location
Your Internet Provider can see when you download torrents! Hide your IP Address with a VPN
1337x recommends using Trust.Zone VPN to hide your torrenting. It's FREE HIDE ME NOW




Movie Name :
Aquaman And The Last Kingdom (2) English HC Partially IMAX Webrip 1080p 1.7GB V1 - Cukister


Quote:



After failing to defeat Aquaman the first time, Black Manta wields the power of the mythic Black Trident to unleash an ancient and malevolent force. Hoping to end his reign of terror, Aquaman forges an unlikely alliance with his brother, Orm, the former king of Atlantis. Setting aside their differences, they join forces to protect their kingdom and save the world from irreversible destruction.


Note From Uploader ( NFU ) :

Starting 3 min are from a IMAX Cam print and also 10 second Levl777AD which was displayed by mistake, it takes rendering time to remove so please dont mind so please dont mind about  the starting 3 min also for ending and starting 15 seconds and is 15% zoomed in, otherwise good quality and audio (first to be uploaded WITH IMAX)
SEED PROPERLY PLEASEEEEEEE
File Size : 1.7GB




Screenshots( COMPRESSED)





Quote:

MediaInfo :
Video
ID                          : 1
Format                      : AVC
Format/Info                 : Advanced Video Codec
Format profile              : [email protected]
Format settings             : CABAC / 1 Ref Frames
Format settings, CABAC      : Yes
Format settings, Reference  : 1 frame
Format settings, GOP        : M=1, N=30
Codec ID                    : avc1
Codec ID/Info               : Advanced Video Coding
Duration                    : 2 h 5 min
Bit rate                    : 1 845 kb/s
Width                       : 1 920 pixels
Height                      : 1 080 pixels
Display aspect ratio        : 16:9
Frame rate mode             : Constant
Frame rate                  : 23.976 (24000/1001) FPS
Color space                 : YUV
Chroma subsampling          : 4:2:0
Bit depth                   : 8 bits
Scan type                   : Progressive
Bits/(Pixel*Frame)          : 0.037
Stream size                 : 1.61 GiB (94%)
Language                    : English
Encoded date                : 2024-01-18 16:23:29 UTC
Tagged date                 : 2024-01-18 16:23:29 UTC
Codec configuration box     : avcC

Audio
ID                          : 2
Format                      : AAC LC
Format/Info                 : Advanced Audio Codec Low Complexity
Codec ID                    : mp4a-40-2
Duration                    : 2 h 5 min
Source duration             : 2 h 5 min
Bit rate mode               : Variable
Bit rate                    : 125 kb/s
Maximum bit rate            : 200 kb/s
Channel(s)                  : 2 channels
Channel layout              : L R
Sampling rate               : 48.0 kHz
Frame rate                  : 46.875 FPS (1024 SPF)
Compression mode            : Lossy
Stream size                 : 112 MiB (6%)
Source stream size          : 112 MiB (6%)
Language                    : English
Encoded date                : 2024-01-18 16:23:29 UTC
Tagged date                 : 2024-01-18 16:23:29 UTC



[/i]

Files:

  • Aquaman And The Last Kingdom (2) English(Clean) KORHC IMAX Webrip 1080p 1.7GB - Cukister.mp4 (1.7 GB)

Comments

Code:

  • udp://tracker.opentrackr.org:1337/announce
  • https://tracker2.ctix.cn:443/announce
  • https://tracker1.520.jp:443/announce
  • udp://opentracker.i2p.rocks:6969/announce
  • udp://open.tracker.cl:1337/announce
  • udp://open.demonii.com:1337/announce
  • udp://tracker.openbittorrent.com:6969/announce
  • http://tracker.openbittorrent.com:80/announce
  • udp://open.stealth.si:80/announce
  • udp://exodus.desync.com:6969/announce
  • udp://tracker.torrent.eu.org:451/announce
  • udp://tracker1.bt.moack.co.kr:80/announce
  • udp://tracker-udp.gbitt.info:80/announce
  • https://tracker.gbitt.info:443/announce
  • http://tracker.gbitt.info:80/announce
  • udp://uploads.gamecoast.net:6969/announce
  • udp://tracker2.dler.org:80/announce
  • udp://tracker.tiny-vps.com:6969/announce
  • udp://tracker.theoks.net:6969/announce
  • udp://tracker.moeking.me:6969/announce