Salaar (2023) 1080p HDRip [Dual Audio] [Hindi + Telugu] x264 ESub...

  • Category Movies
  • Type Bollywood
  • Language Hindi
  • Total size 3.4 GB
  • Uploaded By mazemaze16
  • Downloads 15120
  • Last checked 1 month ago
  • Date uploaded 1 month ago
  • Seeders 340
  • Leechers 117

Salaar: Part 1 – Ceasefire

ActionCrimeThriller

In the city of Khansaar, Raja Mannar plans to make his son, Vardharaja Mannar his successor, but Raja Mannar's ministers and advisors plan a coup d'état by hiring armies from Russia and Serbia to attack and kill Vardha and Raja. Vardha, along with his brother and a few trusted men, manage to escape from Khansaar. Vardha goes to his childhood best friend, Deva, who learns about his predicament and sets out to make him the undisputed successor of Khansaar.

Infohash : 3D45531843F062E858E660B736C73F32C8C78CF6

Warning! Use a VPN When Downloading Torrents!
Your IP Address is . Location
Your Internet Provider can see when you download torrents! Hide your IP Address with a VPN
1337x recommends using Trust.Zone VPN to hide your torrenting. It's FREE HIDE ME NOW




Salaar (2023) 1080p HDRip [Dual Audio] [Hindi + Telugu] x264 ESubs [3.3GB] - QRips





NOTE:

Hindi Cleaned (CAM Audio)

Video
ID : 1
Format : AVC
Format/Info : Advanced Video Codec
Format profile : [email protected]
Format settings : CABAC / 16 Ref Frames
Format settings, CABAC : Yes
Format settings, Reference frames : 16 frames
Codec ID : V_MPEG4/ISO/AVC
Duration : 2 h 54 min
Bit rate : 2 500 kb/s
Width : 1 920 pixels
Height : 802 pixels
Display aspect ratio : 2.40:1

Audio #1
ID : 2
Format : AAC LC
Format/Info : Advanced Audio Codec Low Complexity
Codec ID : A_AAC-2
Duration : 2 h 54 min
Bit rate : 192 kb/s
Channel(s) : 2 channels
Channel layout : L R
Sampling rate : 48.0 kHz
Frame rate : 46.875 FPS (1024 SPF)
Compression mode : Lossy
Stream size : 239 MiB (7%)
Language : Hindi

Audio #2
ID : 3
Format : AAC LC SBR
Format/Info : Advanced Audio Codec Low Complexity with Spectral Band Replication
Commercial name : HE-AAC
Format settings : NBC
Codec ID : A_AAC-5
Duration : 2 h 54 min
Bit rate : 80.0 kb/s
Channel(s) : 6 channels
Channel layout : C L R Ls Rs LFE
Sampling rate : 48.0 kHz
Frame rate : 23.438 FPS (2048 SPF)
Compression mode : Lossy
Stream size : 99.6 MiB (3%)
Language : Telugu
Default : No
Forced : No

Text
ID : 4
Format : UTF-8
Codec ID : S_TEXT/UTF8
Codec ID/Info : UTF-8 Plain Text
Duration : 2 h 50 min
Bit rate : 44 b/s
Count of elements : 1764
Stream size : 55.3 KiB (0%)
Language : English
Default : Yes
Forced : Yes

Screens:



Files:

  • Salaar (2023) 1080p HDRip [Dual Audio] [Hindi + Telugu] x264 ESubs [3.3GB] - QRips.mkv (3.4 GB)

Comments

Code:

  • udp://tracker.opentrackr.org:1337/announce
  • udp://exodus.desync.com:6969/announce
  • udp://9.rarbg.me:2970/announce
  • udp://tracker.opentrackr.org:1337/announce
  • udp://tracker.tiny-vps.com:6969/announce
  • udp://tracker.internetwarriors.net:1337/announce
  • udp://opentor.org:2710/announce
  • udp://tracker.torrent.eu.org:451/announce
  • udp://explodie.org:6969/announce
  • udp://tracker.moeking.me:6969/announce
  • udp://tracker.cyberia.is:6969/announce
  • udp://9.rarbg.me:2980/announce
  • udp://9.rarbg.to:2940/announce
  • udp://tracker.uw0.xyz:6969/announce
  • udp://tracker.openbittorrent.com:1337/announce