The Mole People - Nel tempio degli uomini talpa (1956) 720p h264 ...

  • Category Movies
  • Type HD
  • Language English
  • Total size 1.2 GB
  • Uploaded By robbyrs
  • Downloads 262
  • Last checked 1 month ago
  • Date uploaded 1 month ago
  • Seeders 17
  • Leechers 2

The Mole People

AdventureFantasyHorrorScience Fiction

A party of archaeologists discovers the remnants of a mutant five millennia-old Sumerian civilization living beneath a glacier atop a mountain in Mesopatamia.

Infohash : 36775595E8531976E3412476D42DCD278000B1BA

Warning! Use a VūĚôŅN When Downloading Torrents!
Get VūĚôŅN for FREE

The Mole People - Nel tempio degli uomini talpa (1956) 720p Ac3 5.1 Ita Eng Sub Eng-MIRCrew


NO FOUND ONLY ORIGINAL RELEASE


My release is always in double track audio italian and Original audio
for select it use VLC or dvd player home
not use wmp

Nel tempio degli uomini talpa - The Mole People (1956)

Quality MIRCrew on HD 720p da 1,23 gb




 




La storia Mesopotamica fittizia narrata nel film si basa ampiamente sulla teoria detta Panbabilonismo, nella quale storie sumere e giudaiche descrivono i medesimi eventi. Il dottor Bentley afferma che il diluvio universale è un fatto storicamente e archeologicamente provato, e l'approdo dei Sumeri sulla vetta della montagna è un riferimento al racconto biblico dell'arca di Noe'

The fictional Mesopotamian history depicted in the film is largely based on the theory of Pan-Babylonism, in which Sumerian and Jewish stories describe the same events. Dr. Bentley states that the Great Flood is a historically and archaeologically proven fact, and the Sumerian landing on the mountaintop is a reference to the biblical story of Noah's Ark.


 

Titolo originale The Mole People
Lingua originale inglese
Paese di produzione Stati Uniti d'America
Anno 1956
Durata 77 min
Dati tecnici B/N
rapporto: 1,37:1
Genere fantascienza, horror
Regia Virgil W. Vogel
Soggetto Laszlo Gorog
Sceneggiatura Laszlo Gorog
Fotografia Ellis Carter
Montaggio Irving Birnbaum
Musiche Heinz Roemheld, Hans J. Salter, Herman Stein
Costumi Jay A. Morley Jr.
Trucco Joan St. Oegger, Bud Westmore





   John Agar: Dr. Roger Bentley
   Cynthia Patrick: Adad
   Hugh Beaumont: Dr. Jud Bellamin
   Alan Napier: Elinor, il gran sacerdote
   Nestor Paiva: Prof. Etienne Lafarge
   Phil Chambers: Dr. Paul Stuart
   Rodd Redwing: Nazar
   Bill Miller: ragazzino arabo
   Dr. Frank C. Baxter: sé stesso





In un prologo ci viene narrato dal professor Frank Baxter, il mito del Re sumero Sharu che si sarebbe salvato dal diluvio universale rifugiandosi sulla vetta di una montagna dell'Asia insieme alla sua corte. Il professore cerca di dare credibilità alla storia rifacendosi alle teorie della terra cava di John Symmes e Cyrus Teed.



A party of archaeologists discovers the remnants of a mutant five-millennia-old Sumerian civilization living beneath a glacier atop a mountain in Mesopotamia.

 





[spoiler]General

Complete name                            : Nel tempio degli uomini talpa - The Mole People ( 1956) 720p Ac3 5.1 Ita Eng Sub Eng-MIRCrew.mkv
Format                                   : Matroska
Format version                           : Version 2
File size                                : 1.23 GiB
Duration                                 : 1h 18mn
Overall bit rate                         : 2 249 Kbps
Movie name                               : MIRCrew
Encoded date                             : UTC 2023-10-31T16:00:39Z
Writing application                      : mkvmerge v5.8.0 ('No Sleep / Pillow') built on Sep  2 2012 15:37:04
Writing library                          : Lavf55.12.0

Video
ID                                       : 1
Format                                   : AVC
Format/Info                              : Advanced Video Codec
Format profile ¬† ¬† ¬† ¬† ¬† ¬† ¬† ¬† ¬† ¬† ¬† ¬† ¬† : [email protected]
Format settings, CABAC                   : Yes
Format settings, ReFrames                : 4 frames
Codec ID                                 : V_MPEG4/ISO/AVC
Duration                                 : 1h 18mn
Bit rate                                 : 1 900 Kbps
Width                                    : 1 280 pixels
Height                                   : 720 pixels
Display aspect ratio                     : 16:9
Frame rate                               : 23.976 fps
Color space                              : YUV
Chroma subsampling                       : 4:2:0
Bit depth                                : 8 bits
Scan type                                : Progressive
Bits/(Pixel*Frame)                       : 0.086
Stream size                              : 1 022 MiB (81%)
Title                                    : MIRCrew
Writing library                          : x264 core 142 r2479 dd79a61
Encoding settings                        : cabac=1 / ref=1 / deblock=1:0:0
Language                                 : Italian
Default                                  : Yes
Forced                                   : No
Color primaries                          : BT.709-5, BT.1361, IEC 61966-2-4, SMPTE RP177
Transfer characteristics                 : BT.709-5, BT.1361
Matrix coefficients                      : BT.709-5, BT.1361, IEC 61966-2-4 709, SMPTE RP177

Audio #1
ID                                       : 2
Format                                   : AC-3
Format/Info                              : Audio Coding 3
Mode extension                           : CM (complete main)
Codec ID                                 : A_AC3
Duration                                 : 1h 18mn
Bit rate mode                            : Constant
Bit rate                                 : 192 Kbps
Channel(s)                               : 2 channels
Channel positions                        : Front: L R
Sampling rate                            : 48.0 KHz
Bit depth                                : 16 bits
Compression mode                         : Lossy
Delay relative to video                  : -5ms
Stream size                              : 108 MiB (9%)
Title                                    : Ita Ac3 2.0
Language                                 : Italian
Default                                  : Yes
Forced                                   : No

Audio #2
ID                                       : 3
Format                                   : AC-3
Format/Info                              : Audio Coding 3
Mode extension                           : CM (complete main)
Codec ID                                 : A_AC3
Duration                                 : 1h 18mn
Bit rate mode                            : Constant
Bit rate                                 : 192 Kbps
Channel(s)                               : 2 channels
Channel positions                        : Front: L R
Sampling rate                            : 48.0 KHz
Bit depth                                : 16 bits
Compression mode                         : Lossy
Delay relative to video                  : -5ms
Stream size                              : 108 MiB (9%)
Title                                    : Eng Ac3 2.0
Language                                 : English
Default                                  : No
Forced                                   : No

Text
ID                                       : 4
Format                                   : ASS
Codec ID                                 : S_TEXT/ASS
Codec ID/Info                            : Advanced Sub Station Alpha
Compression mode                         : Lossless
Title                                    : Eng
Language                                 : English
Default                                  : No
Forced                                   : No

Menu
00:00:00.000                             : :00:00:00.000
00:05:52.644                             : :00:05:52.519
00:15:54.578                             : :00:15:54.453
00:29:54.626                             : :00:29:54.501
00:40:50.906                             : :00:40:50.782
00:53:11.271                             : :00:53:11.146
01:02:59.734                             : :01:02:59.609
01:11:21.694                             : :01:11:21.569


[/spoiler]







Files:

  • Nel tempio degli uomini talpa - The Mole People ( 1956) 720p Ac3 5.1 Ita Eng Sub Eng-MIRCrew.mkv (1.2 GB)

There are currently no comments. Feel free to leave one :)

Code:

  • udp://tracker.torrent.eu.org:451/announce
  • udp://tracker.openbittorrent.com:6969/announce
  • udp://p4p.arenabg.com:1337/announce
  • udp://inferno.demonoid.is:3391/announce
  • udp://explodie.org:6969/announce
  • udp://tracker.opentrackr.org:1337/announce
  • udp://opentracker.i2p.rocks:6969/announce
  • udp://exodus.desync.com:6969/announce
  • udp://ipv4.tracker.harry.lu:80/announce
  • udp://open.stealth.si:80/announce